Rampal -《莫扎特:长笛四重奏》(MOZART: 4 FLUTE QUARTETS)[FLAC]

Rampal -《莫扎特:长笛四重奏》(MOZART: 4 FLUTE QUARTETS)[FLAC]
  • 片  名  Rampal -《莫扎特:长笛四重奏》(MOZART: 4 FLUTE QUARTETS)[FLAC]
  • 简  介  古典类型: 室内乐发行时间: 1987年
  • 类  别  音乐
  • 小  类  古典音乐


  • 详细介绍专辑英文名: MOZART: 4 FLUTE QUARTETS专辑中文名: 莫扎特:长笛四重奏艺术家: Rampal古典类型: 室内乐资源格式: FLAC发行时间: 1987年地区: 美国语言: 英语简介: 专辑介绍
    莫扎特的长笛四重奏
    长笛:郎帕尔
    小提琴:斯特恩
    中提琴:阿卡多
    大提琴:罗斯特洛波维奇
    企鹅评价三星,看看封面四位大师级艺术家,还有什么可介绍呢!快去下吧!

  • Rampal -《莫扎特:长笛四重奏》(MOZART: 4 FLUTE QUARTETS)[FLAC]_large

精选评论

谢谢分享!
室内乐听的少
补补课

这跟网瘾有个鬼的关系
如果“网瘾”是精神病,那么赌瘾、或者是那些对某种东西有特别强烈的爱好的,都是精神病了。所谓的专家真让人心寒。无知的家长只懂得打和骂,却忽略了自身对子女教育的不足,将责任完全推到子女身上,还将教育的问题交给所谓的专家,哎~残害下一代啊
CBS的Booklet最后一页虽然有条形码,但不是真正的封底,希望楼主以后把底图扫上!
当年的三大长笛高手 高威 朗帕尔 尼柯莱
这个cue的时间肯定有问题啊!不过不影响播放!
TRACK 01 AUDIO
TITLE "Quartet, K. 285 D Major, Allegro"
PERFORMER "Rampal, Stern, Accardo, Rostropovich"
FLAGS PRE
INDEX 01 00:00:00
TRACK 02 AUDIO
TITLE "Quartet, K. 285 D Major, Adagio"
PERFORMER "Rampal, Stern, Accardo, Rostropovich"
FLAGS PRE
INDEX 01 06:49:10
TRACK 03 AUDIO
TITLE "Quartet, K. 285 D Major, Rondeau: Allegretto"
PERFORMER "Rampal, Stern, Accardo, Rostropovich"
FLAGS PRE
INDEX 00 06:49:10
INDEX 01 09:11:17
TRACK 04 AUDIO
TITLE "Quartet, K. 285A G Major, Andante"
PERFORMER "Rampal, Stern, Accardo, Rostropovich"
FLAGS PRE
INDEX 00 06:49:10
INDEX 01 13:40:10
TRACK 05 AUDIO
TITLE "Quartet, K. 285A G Major, Tempo Di Menuetto"
PERFORMER "Rampal, Stern, Accardo, Rostropovich"
FLAGS PRE
INDEX 00 06:49:10
INDEX 01 21:29:05
TRACK 06 AUDIO
TITLE "Quartet, K. 285B C Major, Allegro"
PERFORMER "Rampal, Stern, Accardo, Rostropovich"
FLAGS PRE
INDEX 00 06:49:10
INDEX 01 24:53:10
TRACK 07 AUDIO
TITLE "Quartet, K. 285B C Major, Thema: Andantino"
PERFORMER "Rampal, Stern, Accardo, Rostropovich"
FLAGS PRE
INDEX 00 06:49:10
INDEX 01 30:19:15
TRACK 08 AUDIO
TITLE "Quartet, K. 285B C Major, Variation 1"
PERFORMER "Rampal, Stern, Accardo, Rostropovich"
FLAGS PRE
INDEX 00 06:49:10
INDEX 01 31:43:10
TRACK 09 AUDIO
TITLE "Quartet, K. 285B C Major, Variation 2"
PERFORMER "Rampal, Stern, Accardo, Rostropovich"
FLAGS PRE
INDEX 00 06:49:10
INDEX 01 33:06:12
TRACK 10 AUDIO
TITLE "Quartet, K. 285B C Major, Variation 3"
PERFORMER "Rampal, Stern, Accardo, Rostropovich"
FLAGS PRE
INDEX 00 06:49:10
INDEX 01 34:34:30
TRACK 11 AUDIO
TITLE "Quartet, K. 285B C Major, Variation 4"
PERFORMER "Rampal, Stern, Accardo, Rostropovich"
FLAGS PRE
INDEX 00 06:49:10
INDEX 01 36:03:22
TRACK 12 AUDIO
TITLE "Quartet, K. 285B C Major, Variation 5: Adagio"
PERFORMER "Rampal, Stern, Accardo, Rostropovich"
FLAGS PRE
INDEX 00 06:49:10
INDEX 01 37:32:35
TRACK 13 AUDIO
TITLE "Quartet, K. 285B C Major, Variation 6: Allegro"
PERFORMER "Rampal, Stern, Accardo, Rostropovich"
FLAGS PRE
INDEX 00 06:49:10
INDEX 01 39:49:67
TRACK 14 AUDIO
TITLE "Quartet, K. 298 A Major, Thema: Andante"
PERFORMER "Rampal, Stern, Accardo, Rostropovich"
FLAGS PRE
INDEX 00 06:49:10
INDEX 01 40:56:10
TRACK 15 AUDIO
TITLE "Quartet, K. 298 A Major, Variation 1"
PERFORMER "Rampal, Stern, Accardo, Rostropovich"
FLAGS PRE
INDEX 00 06:49:10
INDEX 01 42:05:50
TRACK 16 AUDIO
TITLE "Quartet, K. 298 A Major, Variation 2"
PERFORMER "Rampal, Stern, Accardo, Rostropovich"
FLAGS PRE
INDEX 00 06:49:10
INDEX 01 43:14:37
TRACK 17 AUDIO
TITLE "Quartet, K. 298 A Major, Variation 3"
PERFORMER "Rampal, Stern, Accardo, Rostropovich"
FLAGS PRE
INDEX 00 06:49:10
INDEX 01 44:21:57
TRACK 18 AUDIO
TITLE "Quartet, K. 298 A Major, Variation 4"
PERFORMER "Rampal, Stern, Accardo, Rostropovich"
FLAGS PRE
INDEX 00 06:49:10
INDEX 01 45:30:52
TRACK 19 AUDIO
TITLE "Quartet, K. 298 A Major, [Menuetto]:Trio"
PERFORMER "Rampal, Stern, Accardo, Rostropovich"
FLAGS PRE
INDEX 00 06:49:10
INDEX 01 46:43:15
TRACK 20 AUDIO
TITLE "Quartet, K. 298 A Major, Rondieoux: Allegretto Grazioso"
PERFORMER "Rampal, Stern, Accardo, Rostropovich"
FLAGS PRE
INDEX 00 06:49:10
INDEX 01 49:01:57
这个阵容已经强大到不行
我对能发表管乐唱片的人有特殊的敬意。总听乐队、钢琴、弦乐会厌烦。听管乐能丰富听觉,感谢发布者!!!
请楼主检查一下CUE忘记是否正确啊,郁闷。。

莫名其妙,不会发贴就闭上你的嘴巴
大师级的,还有什么说的。下吧,谢LZ。
的确空前绝后的场面!感激!
“种源人”也离谱太远了吧。。。
不过还是那句——“学音乐的孩子不会变坏”。